#TITLE:Otaku Speedvibe;
#SUBTITLE:;
#ARTIST:Neon Genesis Gabbangelion;
#TITLETRANSLIT:;
#SUBTITLETRANSLIT:;
#ARTISTTRANSLIT:;
#CREDIT:;
#BANNER:;
#BACKGROUND:;
#LYRICSPATH:;
#CDTITLE:;
#MUSIC:Otaku Speedvibe.mp3;
#OFFSET:0.000;
#SAMPLESTART:100.000;
#SAMPLELENGTH:12.000;
#SELECTABLE:YES;
#BPMS:0.000=212.000;
#STOPS:;
#BGCHANGES:;
// cache tags:
#FIRSTBEAT:4.000;
#LASTBEAT:465.000;
#SONGFILENAME:Songs/Music V.I.P ^_^/Otaku Speedvibe/Otaku Speedvibe.sm;
#HASMUSIC:1;
#HASBANNER:0;
#MUSICLENGTH:132.145;
// end cache tags

//---------------dance-single - Blank----------------
#NOTES:
     dance-single:
     Blank:
     Challenge:
     21:
     1.000,1.000,1.000,0.000,1.000,1342.000,792.000,0.000,0.000,0.000:
0000
0000
0000
0000
,
1100
0000
0000
0000
0010
0000
0000
0000
0010
0000
0000
0000
0010
0100
0010
0100
,
1001
0000
0000
0000
0010
0000
0000
0000
0010
0000
0000
1100
0011
0000
0110
0001
,
1100
0000
0000
0000
0010
0000
0000
0000
0010
0000
0000
0000
0010
0100
0010
0100
,
1001
0000
0000
0000
0010
0000
0000
0000
0010
0000
0000
0101
1010
0001
1010
0100
,
1010
0100
1001
0100
1010
0001
1010
0001
0110
0001
1100
0010
1100
0010
1001
0100
,
1001
0100
1010
0001
1010
0001
1100
0001
0110
0001
1100
0001
1010
0001
1100
0010
,
0101
0010
1001
0100
1001
0100
0011
1000
0110
1000
0110
1000
0101
0010
1100
0011
,
1100
0000
0000
0000
0010
0000
0000
0000
1001
0000
0000
0000
0100
0000
0000
0000
1001
0000
0000
0000
0000
0000
1000
0100
0010
0001
0000
0000
0000
0000
0000
0000
0000
0000
0000
0000
0000
0000
1000
0100
0010
0001
0000
0000
0000
0000
0000
0000
0000
0000
0000
0000
0000
0000
1000
0100
0010
0001
0000
0000
0000
0000
0000
0000
,
0000
0000
1001
0010
1100
0001
0110
1000
0101
1000
0011
0100
1001
0010
1100
0010
,
0101
0010
1001
0100
0011
1000
0110
1000
0101
0010
1001
0010
0101
1000
0110
1000
,
0110
0001
1010
0100
0011
0100
1001
0010
1100
0001
0110
1000
0101
0010
1001
0010
,
1100
0000
1001
0010
1100
0010
0101
1000
0011
1000
0101
0010
1100
0001
0110
1000
,
0011
0100
1010
0100
0011
1000
0110
0001
1010
0100
1001
0010
0101
1000
0110
1001
,
0110
1001
0110
1000
0101
0010
0101
1000
0110
1000
0011
0100
1010
0100
0011
0100
,
1010
0100
1001
0010
0101
0010
1100
0001
1010
0100
1001
0010
1100
0001
0110
1000
,
0101
0010
0100
0000
0110
0000
0010
0000
1010
0000
1000
0000
1100
0000
0101
0000
,
0110
0001
1100
0010
0101
1000
0101
0010
1100
0001
1010
0100
1010
0001
1010
0100
,
1010
0001
0110
0001
0110
1000
0011
0100
0011
1000
0011
0100
1010
0100
0011
0100
,
1001
0100
0011
1000
0101
0010
1001
0100
0011
0100
1010
0001
1100
0010
1001
0100
,
1010
0001
0110
1000
0101
0010
0101
1000
0110
0001
1010
0100
1001
0010
0101
1000
,
0101
0010
0101
1000
0110
0001
1010
0100
0011
0100
1001
0010
0101
0010
1100
0010
,
0101
1000
0011
0100
1010
0100
1001
0010
1100
0001
0110
1000
0110
0001
1010
0100
,
0011
0100
1010
0001
0110
1000
0101
0010
1001
0100
1010
0100
0011
1000
0101
0010
,
1100
0010
1001
0010
1100
0001
0110
1000
0110
0001
0110
1000
0110
0001
1010
0100
,
1001
0000
1001
0000
1001
0000
1001
0101
,
0101
0000
0101
0000
0101
0000
0101
0110
,
0110
0000
0110
0000
0110
0000
0110
1010
,
1010
0000
1010
0100
1010
0100
1010
0001
,
1001
1000
1001
0001
1001
0010
1001
0101
,
0101
0010
1100
1000
0101
0001
0011
0010
,
0110
0100
1100
1000
1010
0010
0110
0101
,
0101
0001
0011
0010
1010
1000
1100
0100
,
0101
0000
1000
0000
0100
0000
0010
0001
1000
0000
1000
0000
1001
0000
1100
0000
,
1100
0000
1000
0000
1000
0000
1000
0000
1000
0100
0010
0000
0010
0000
0010
0000
,
0010
0000
0010
0000
0010
0000
0010
0000
0010
0001
0100
0000
0100
0000
0100
0000
,
0100
0000
0100
0000
0100
0000
0100
0000
0100
1000
0001
0000
0001
0000
0001
0000
,
0001
0000
0001
0000
0001
0000
0001
0000
0001
0010
0100
0000
0110
0000
1000
0000
,
0101
0010
0011
0010
0110
0100
1100
0101
,
1010
0101
1010
1100
0011
0101
0011
0101
,
1010
0000
0000
0000
0000
0000
0000
0000
1100
0000
0000
0000
0000
0000
0000
0000
1010
0000
0000
0000
0000
0000
1000
0100
0010
0001
0000
0000
0000
0000
0000
0000
0000
0000
0000
0000
0000
0000
1000
0100
0010
0001
0000
0000
0000
0000
0000
0000
0000
0000
0000
0000
0000
0000
1000
0100
0010
0001
0000
0000
0000
0000
0000
0000
,
0101
1010
1100
1010
1100
1010
0101
0011
,
0101
1010
1010
1010
1010
0101
0101
0101
,
0101
0011
0011
0101
0101
0011
0101
0011
,
1010
0110
1010
0110
0011
0110
1010
0110
,
0011
0000
0101
0000
0101
0000
0100
0000
1001
0100
1010
0001
1100
0001
0110
1000
,
0011
0100
1001
0010
0101
1000
0011
0100
1010
0001
0110
1000
0101
0010
1001
0100
,
0011
1000
0110
0001
1010
0100
1001
0010
0101
1000
0110
0001
1100
0010
0101
0010
,
1001
0000
0000
0000
0000
0000
0000
0000
0000
0000
0000
0100
0000
0000
0100
0000
,
0110
0001
1100
0010
0101
0010
1100
0001
0110
0001
1010
0100
1001
0010
0101
0010
,
1100
0001
0110
1000
0011
0100
1010
0100
0011
1000
0110
1000
0101
0010
1100
0010
,
0101
1000
0110
0001
0110
1000
0101
0010
0101
1000
0110
0001
1100
0001
0110
0001
,
1010
0100
0011
1000
0110
0001
1100
0010
1001
0100
1010
0001
0110
1000
0101
0010
,
0101
1000
0011
0100
1010
0001
0110
1000
0101
1000
0110
1000
0101
0010
1001
0100
,
1010
0100
1001
0010
0101
1000
0011
1000
0110
1000
0110
0001
0110
1000
0101
0010
,
1001
0100
0011
1000
0110
0001
1100
0001
0110
1000
0011
0100
1010
0001
1100
0001
,
0110
0001
1100
0000
0110
0000
0011
0000
1010
0000
0110
0000
0011
0000
1010
0000
,
0011
0100
1010
0001
1100
0010
0101
0010
1100
0010
0101
1000
0011
0100
1010
0100
,
0011
1000
0110
0001
1100
0010
0101
1000
0011
0100
1010
0001
1100
0001
0110
1000
,
0101
0010
1001
0100
0011
1000
0110
1000
0101
0010
0101
0010
1100
0010
1001
0100
,
0011
1000
0110
0001
0110
1000
0101
0010
1100
0001
1010
0100
0011
1000
0110
0001
,
0110
1000
0011
0100
0011
0100
1010
0100
1010
0100
1001
0010
1001
0010
1001
0100
,
1001
1010
1010
0011
0011
1001
1100
0110
,
1100
1001
0011
1010
0011
1001
0011
0101
,
0011
0000
0000
0000
0000
0000
0000
0000
0000
0000
0000
0000
0000
0000
0000
0000
0000
0000
0000
0000
0000
0000
0000
0000
0000
0000
0000
0000
0000
0000
0000
0000
1000
0001
1000
0001
1000
0001
1000
0001
1000
0001
1000
0001
1000
0001
1000
0001
1000
0001
1000
0001
1000
0001
1000
0001
0110
1000
0001
0001
1000
0001
1000
0001
,
1001
0110
1001
0101
1010
1100
0101
0110
,
0011
1001
1100
0110
0101
1010
1100
0011
,
0101
1010
0110
1001
0110
1001
0011
1100
,
0101
1010
0110
1001
0011
1100
1010
0101
,
0011
0110
1100
0110
0011
0101
0110
1010
,
0110
0011
0101
0110
1010
1100
1100
0110
,
0011
0011
0110
0101
0101
0110
1010
1010
,
1100
0101
0011
1001
0110
1001
0101
1100
,
1001
1010
0101
1010
0101
1010
0101
1010
0101
1010
0101
1010
0101
1010
0101
1010
,
0101
1010
0101
1010
0101
1010
0101
1010
0101
1010
0101
1010
0101
1010
0101
1010
,
1100
0011
1100
0011
1100
0011
1100
0011
1100
0011
1100
0011
1100
0011
1100
0011
,
1100
0011
1100
0011
1100
0011
1100
0011
1100
0011
1100
0011
1100
0011
1100
0011
,
1001
0110
1001
0110
1001
0110
1001
0110
1001
0110
1001
0110
1001
0110
1001
0110
,
1001
0110
1001
0110
1001
0110
1001
0110
1001
0110
1001
0110
1001
0110
1001
0110
,
0101
0101
0101
0101
0110
0110
0110
0110
1010
1010
1010
1010
1001
1001
1001
1001
,
1100
1100
1100
1100
0110
0110
0110
0110
0011
0011
0011
0011
1001
1001
1001
1001
,
0000
0000
0000
0000
0000
0000
0000
0000
0000
0000
0000
0000
0100
0000
0000
0000
0000
0000
0000
0000
0000
0000
0000
0000
0000
0000
0000
0000
0000
0000
0000
0000
0000
0000
0000
0000
0000
0000
0000
0000
0000
0000
0000
0000
0000
0000
0000
0000
0000
0000
0000
0000
0000
0000
0000
0000
0000
0000
0000
0000
0000
0000
0000
0000
0000
0000
0000
0000
0000
0000
0000
0000
0000
0000
0000
0000
0000
0000
0000
0000
0000
0000
0000
0000
0000
0000
0000
0000
0000
0000
0000
0000
0000
0000
0000
0000
0000
0000
0000
0000
0000
0000
0000
0000
0000
0000
0000
0000
0000
0000
0000
0000
0000
0000
0000
0000
0000
0000
0000
0000
0000
0000
0000
0000
0010
0000
0000
0000
0000
0001
0000
0000
0000
0000
0000
0000
0000
0000
0000
0000
0000
0000
0000
0000
0000
0000
0000
0000
0000
0000
0000
0000
0000
0000
0000
0000
0000
0000
0000
0000
0000
0000
0000
0000
0000
0000
0000
0000
0000
0000
0000
0000
0000
0000
0000
0000
0000
0000
0000
0000
0000
0000
0000
0000
0000
0000
0000
0000
0000
0000
0000
0000
,
0000
0000
0000
0000
0000
0000
0000
0000
0000
0001
0000
0000
0000
0000
0000
0000
0000
0000
0000
0000
0000
0000
0000
0000
0000
0000
0000
0000
0000
0000
0000
0000
0000
0000
0000
0000
0000
0000
0000
0000
0000
0000
0000
0000
0000
0000
0000
0000
0000
0000
0000
0000
0000
0000
0000
0000
0000
0000
0000
0000
0000
0000
0000
0000
0000
0000
0000
0000
0000
0000
0000
0000
0000
0000
0000
0000
0000
0000
0000
0000
0000
0010
0000
0000
0000
0000
0000
0000
0000
0000
0000
0000
0000
0000
0000
0000
0000
0000
0000
0000
0000
0000
0000
0000
0000
0000
0000
0000
0000
0000
0000
0000
0000
0000
0000
0000
0000
0000
0000
0000
0000
0000
0000
0000
0000
0000
0000
0000
0000
0000
0000
0000
0000
0000
0000
0000
0000
0000
0000
0000
0000
0000
0000
0000
0000
0000
0000
0000
0000
0000
0000
0000
0100
0000
0000
0000
0000
0000
0000
0000
0000
0000
0000
0000
0000
0000
0000
0000
0000
0000
0000
0000
0000
0000
0000
0000
0100
0000
0000
0000
0000
0000
0000
0000
0000
0000
0000
0000
0000
0000
0000
0000
,
1001
0010
1100
0010
0101
0010
1001
0100
1010
0001
0110
1000
0101
0010
0011
0010
,
1100
1100
0101
0101
0011
0011
1100
1100
,
0011
1000
0110
0100
0011
1000
0101
0010
1010
0100
1001
0010
0110
1000
1100
0010
,
0101
1000
1100
0010
0011
0010
1100
0100
0011
0100
0101
0100
1010
0100
0011
0101
,
1001
1100
0101
0011
1100
0101
1010
0101
1001
0110
0011
1100
0101
1010
0101
1010
,
1001
0110
1001
0011
1100
0101
1010
0101
,
1001
1001
0110
0110
1001
0110
1001
0011
1100
0101
1010
0110
1001
1100
0110
0011
,
0110
1100
0101
0110
1001
0110
1001
0110
1100
0101
0011
0011
1100
1100
0011
1100
,
0011
1100
1000
0000
0001
0000
0010
0000
0100
0000
1000
0000
0001
0000
0100
0000
,
1010
1001
0101
1100
0101
0110
0110
1001
1001
0110
1001
0110
0011
1100
1100
0101
,
0101
1010
0110
1010
0110
0101
0110
1001
1100
0101
0011
1100
0110
1100
0110
1000
,
0001
1000
0010
0001
0100
0010
0001
0100
,
1000
0010
1000
0100
0001
0010
1000
0010
,
0001
1000
0001
1000
0010
0100
0010
0100
,
1000
0100
0010
0001
0010
0100
1000
0100
,
0010
0000
0000
0000
0000
0000
0000
0000
0001
0000
0000
0000
0000
0000
0000
0000
0010
0000
0000
0000
0000
0000
0000
0000
0100
0000
0000
0000
0000
0000
0000
0000
0000
0000
0000
0000
0110
0000
0000
0000
0000
0000
0000
0000
0000
0000
0000
0000
1000
0001
1000
0001
1000
0001
1000
0001
1000
0001
1000
0001
1000
0001
1000
0001
,
1100
1010
1100
1010
0000
0000
0000
0000
,
0101
0011
0101
0011
0000
0000
0000
0000
,
1010
0110
0101
0011
0110
1100
0110
0101
,
0000
0000
0000
0000
0000
0000
0000
0000
0000
0000
0000
0000
0000
0000
0000
0010
0100
0010
0100
0010
0100
0010
0000
0000
,
1001
0110
1001
0110
0000
0000
0000
0000
,
1100
0000
0011
0000
1100
0000
0011
0000
0000
0001
0010
0100
1000
0000
0000
0000
,
1010
0110
1010
0110
1010
0110
1010
0110
,
0000
0000
0000
0000
0000
0000
0000
0000
0000
0000
0000
0000
0100
0000
0000
0000
0000
0000
0000
0000
0000
0000
0000
0000
0000
0000
0000
0000
0000
0000
0000
0000
1001
0000
0000
0000
0000
0000
0000
0000
0000
0000
0000
0000
0000
0000
0000
0000
0000
0000
0000
0000
1000
0100
0010
0001
1000
0100
0010
0001
1000
0100
0010
0001
,
1001
1100
1001
1100
0000
0000
0000
0000
,
1001
1010
1001
1010
0000
0000
0000
0000
,
0110
1100
0110
1100
0110
0011
0101
0011
,
0000
0000
0000
0000
0000
0000
0000
0000
0000
0000
0000
0000
0000
0000
0000
0010
0100
0010
0100
0010
0100
0010
0000
0000
,
0110
1100
0110
0011
0000
0000
0000
0000
,
0101
0011
0110
1100
0000
0000
0000
0000
,
1010
0000
0000
0000
1000
0000
0000
0000
0110
0000
0001
1000
0010
0001
0100
0001
1010
0000
0000
0000
0100
0000
0000
0000
0101
0000
0000
0000
1000
0000
0000
0000
1010
0000
0000
0000
0001
0000
0000
0000
0101
0000
0000
0000
0100
0000
0000
0000
0011
0000
0000
0000
0010
0000
0000
0000
1100
0000
0000
0000
0001
0000
0000
0000
,
0101
0000
0000
0000
1000
0000
0000
0000
1010
0000
0000
0000
0100
0000
0000
0000
0101
0000
0000
0000
0010
0000
0000
0000
1010
0000
0000
0000
0001
0000
0000
0000
0110
0000
0000
0000
1000
0000
0000
0000
1001
0000
0000
0000
0001
0000
0000
0000
0110
0000
0000
0000
1000
0000
0000
0000
0001
0010
0100
1000
0001
0010
0100
1000
,
1001
0000
1000
0000
1000
0000
1100
1001
,
1001
0101
0000
0000
;

//---------------dance-single - ----------------
#NOTES:
     dance-single:
     :
     Hard:
     11:
     0.241,0.222,0.477,0.000,0.057,160.000,63.000,0.000,0.000,0.000:
0000
0000
0000
0000
,
1100
0000
0000
0000
0010
0000
0000
0000
0010
0000
0000
0000
0010
0100
0010
0100
,
0010
0000
0000
0000
0010
0000
0000
0000
0010
0000
0000
0100
0010
0000
0100
0000
,
1000
0000
0000
0000
0010
0000
0000
0000
0010
0000
0000
0000
0010
0100
0010
0100
,
0010
0000
0000
0000
0010
0000
0000
0000
0010
0000
0000
0100
0010
0000
0100
0000
,
1100
0100
0110
0010
0011
0001
1001
1000
,
1100
0100
0110
0010
0011
0001
0101
0100
,
1100
0100
0110
0010
0011
0001
0101
0100
,
0110
0000
0000
0000
0000
0000
0000
1000
0100
0010
0001
0000
0000
0000
0000
1000
0100
0010
0001
0000
0000
0000
0000
1000
0100
0010
0001
0000
0000
0000
0000
0000
,
1001
0001
0101
0100
0110
0010
1010
1000
,
1100
0100
0110
0010
0011
0001
0101
0100
,
1100
1000
1010
0010
0110
0100
1100
0100
,
0101
0001
0011
0010
0110
0100
1100
1000
,
1010
0010
0110
0100
0101
0001
0011
0010
,
1010
1000
1100
0100
0110
0010
1010
1000
,
1001
0001
0101
0100
0110
0010
0011
0001
,
1001
1000
1001
0001
0011
0010
0110
0100
,
0101
0001
1001
1000
1100
0100
0101
0001
,
0011
0010
0110
0100
1100
1000
1010
0010
,
0110
0100
0101
0001
0011
0010
0110
0010
,
1010
1000
1100
0100
0101
0001
1001
1000
,
1010
0000
0000
0000
;
